Login
Username:
Password:
[Signup]
[Recover Account]


Browse Torrents

Poll


You must be logged in to view polls



Latest Torrents
Antz.1998.720p.Blu...
- [Size: 4.40 GB]

Antz.1998.1080p.Bl...
- [Size: 7.99 GB]

Time Story Aka 24 ...
- [Size: 1.23 GB]

Reprisal 2018 1080...
- [Size: 2.70 GB]

Down a Dark Hall 2...
- [Size: 1.92 GB]


Torrent Details For "Invisible Target 2007 x264 720p Esub BluRay Telugu Hindi Chi GOPISAHI"

Invisible Target 2007 x264 720p Esub BluRay Telugu Hindi Chi GOPISAHI

Download this torrent | Magnet Download
Health:
Seeds: 8
Leechers: 495
Completed:
Last Checked: 11-10-2018 16:07:30
External Torrent
Update Stats



Poster
No poster



Details
Name:Invisible Target 2007 x264 720p Esub BluRay Telugu Hindi Chi GOPISAHI
Description:
 http://www.gopisahi.pw/


Format                         : Matroska
Format version                 : Version 4 / Version 2
File size                      : 1 011 MiB
Duration                       : 2 h 9 min
Overall bit rate               : 1 091 kb/s
Movie name                     : Invisible Target 2007 GOPISAHI

Video
Format                         : AVC
Format/Info                    : Advanced Video Codec
Codec ID                       : V_MPEG4/ISO/AVC
Duration                       : 2 h 9 min
Bit rate                       : 799 kb/s
Width                          : 1 280 pixels
Height                         : 544 pixels
Display aspect ratio           : 2.35:1
Frame rate mode                : Constant
Frame rate                     : 24.000 FPS
Color space                    : YUV
Chroma subsampling             : 4:2:0
Bit depth                      : 8 bits
Scan type                      : Progressive
Bits/(Pixel*Frame)             : 0.048
Stream size                    : 740 MiB (73%)
Title                          : GOPISAHI
Writing library                : x264 core 155 r2901 7d0ff22

Audio #1
Format                         : AAC
Duration                       : 2 h 9 min
Bit rate                       : 96.0 kb/s
Channel(s)                     : 2 channels
Channel positions              : Front: L R
Sampling rate                  : 48.0 kHz
Frame rate                     : 46.875 FPS (1024 SPF)
Compression mode               : Lossy
Delay relative to video        : -21 ms
Stream size                    : 89.1 MiB (9%)
Title                          : GOPISAHI
Language                       : Hindi

Audio #2
Format                         : AAC
Duration                       : 2 h 9 min
Bit rate                       : 96.0 kb/s
Channel(s)                     : 2 channels
Channel positions              : Front: L R
Sampling rate                  : 48.0 kHz
Frame rate                     : 46.875 FPS (1024 SPF)
Compression mode               : Lossy
Delay relative to video        : 9 ms
Stream size                    : 89.1 MiB (9%)
Title                          : GOPISAHI
Language                       : Chinese

Audio #3
Format                         : AAC
Format/Info                    : Advanced Audio Codec
Duration                       : 2 h 9 min
Bit rate                       : 96.0 kb/s
Channel(s)                     : 2 channels
Channel positions              : Front: L R
Sampling rate                  : 48.0 kHz
Frame rate                     : 46.875 FPS (1024 SPF)
Compression mode               : Lossy
Delay relative to video        : -21 ms
Stream size                    : 89.1 MiB (9%)
Title                          : GOPISAHI
Language                       : Telugu

Text
Language                       : English



Category:Movies > Hollywood Dub
Lang:Hindi
Total Size:1,010.78 MB
Info Hash:b49c70ef9aa5133004fb145a8465ae3f62ad9cf1
Added By:gopisahi
Date Added:11-10-2018 13:49:48
Downloads:270

Ratings:Not Yet Rated (Log in to rate it)


Tracker:
udp://tracker.coppersurfer.tk:6969/announce


File List: 


Comments

No comments still posted

Top
Copyright 2018 DownloadHD -|- Page Generated In 0.498600 secs.
-|- RSS Feed -|- Feed Info