Login
Username:
Password:
[Signup]
[Recover Account]


Browse Torrents

Poll


You must be logged in to view polls



Latest Torrents
Nanu Ki Jaanu 2018...
- [Size: 625.90 MB]

Anthony Kaun Hai (...
- [Size: 1.47 GB]

Mr.Mercedes.S02E09...
- [Size: 341.69 MB]

The.Death.of.Super...
- [Size: 8.94 GB]

Van.Wilder.2002.21...
- [Size: 34.86 GB]


Torrent Details For "Fanney Khan 2018 x264 720p Esub Hindi GOPISAHI"

Fanney Khan 2018 x264 720p Esub Hindi GOPISAHI

Download this torrent | Magnet Download
Health:
Seeds: 22
Leechers: 89
Completed: 21 
Last Checked: 12-10-2018 12:06:38
External Torrent
Update Stats



Poster
No poster



Details
Name:Fanney Khan 2018 x264 720p Esub Hindi GOPISAHI
Description:


 http://www.gopisahi.pw/

Format                         : Matroska
Format version                 : Version 4 / Version 2
File size                      : 644 MiB
Duration                       : 2 h 9 min
Overall bit rate               : 697 kb/s
Movie name                     : Fanney Khan 2018 GOPISAHI

Video
Format                         : AVC
Format/Info                    : Advanced Video Codec
Codec ID                       : V_MPEG4/ISO/AVC
Duration                       : 2 h 9 min
Bit rate                       : 599 kb/s
Width                          : 1 280 pixels
Height                         : 544 pixels
Display aspect ratio           : 2.35:1
Frame rate mode                : Constant
Frame rate                     : 24.000 FPS
Color space                    : YUV
Chroma subsampling             : 4:2:0
Bit depth                      : 8 bits
Scan type                      : Progressive
Bits/(Pixel*Frame)             : 0.036
Stream size                    : 554 MiB (86%)
Title                          : GOPISAHI
Writing library                : x264 core 155 r2901 7d0ff22

Audio
Format                         : AAC
Duration                       : 2 h 9 min
Bit rate                       : 96.0 kb/s
Channel(s)                     : 2 channels
Channel positions              : Front: L R
Sampling rate                  : 48.0 kHz
Frame rate                     : 46.875 FPS (1024 SPF)
Compression mode               : Lossy
Delay relative to video        : -21 ms
Stream size                    : 88.4 MiB (14%)
Title                          : GOPISAHI
Language                       : Hindi

Text
Language                       : English


Category:Movies > Bollywood
Lang:Hindi
Total Size:644.03 MB
Info Hash:dd4d4f8f727ef0db7315003a2c29bf6825c3d3db
Added By:gopisahi
Date Added:12-10-2018 10:13:45
Downloads:132

Ratings:Not Yet Rated (Log in to rate it)


Tracker:
udp://tracker.coppersurfer.tk:6969/announce


File List: 


Comments

No comments still posted

Top
Copyright 2018 DownloadHD -|- Page Generated In 0.651202 secs.
-|- RSS Feed -|- Feed Info