Login
Username:
Password:
[Signup]
[Recover Account]


Browse Torrents

Poll


You must be logged in to view polls



Latest Torrents
Baroness.Von.Sketc...
- [Size: 568.91 MB]

Bigg.Boss.Season.1...
- [Size: 473.97 MB]

Paranormal.Highway...
- [Size: 1.31 GB]

Bigg.Boss.Season.1...
- [Size: 821.21 MB]

Nanu Ki Jaanu 2018...
- [Size: 625.90 MB]


Torrent Details For "War of the Arrows 2011 x264 720p Esub BluRay Dual Audio English Hindi GOPISAHI"

War of the Arrows 2011 x264 720p Esub BluRay Dual Audio English Hindi GOPISAHI

Download this torrent | Magnet Download
Health:
Seeds: 181
Leechers: 46
Completed: 2,873 
Last Checked: 16-10-2018 19:32:49
External Torrent
Update Stats



Poster
No poster



Details
Name:War of the Arrows 2011 x264 720p Esub BluRay Dual Audio English Hindi GOPISAHI
Description:
 http://www.gopisahi.pw/

Format                         : Matroska
Format version                 : Version 4 / Version 2
File size                      : 997 MiB
Duration                       : 2 h 2 min
Overall bit rate               : 1 141 kb/s
Movie name                     : War of the Arrows 2011 GOPISAHI

Video
Format                         : AVC
Format/Info                    : Advanced Video Codec
Codec ID                       : V_MPEG4/ISO/AVC
Duration                       : 2 h 2 min
Bit rate                       : 947 kb/s
Width                          : 1 280 pixels
Height                         : 544 pixels
Display aspect ratio           : 2.35:1
Frame rate mode                : Constant
Frame rate                     : 23.976 (24000/1001) FPS
Color space                    : YUV
Chroma subsampling             : 4:2:0
Bit depth                      : 8 bits
Scan type                      : Progressive
Bits/(Pixel*Frame)             : 0.057
Stream size                    : 827 MiB (83%)
Title                          : GOPISAHI
Writing library                : x264 core 80 r1376M 3feaec2

Audio #1
Format                         : AAC
Duration                       : 2 h 2 min
Bit rate                       : 96.0 kb/s
Channel(s)                     : 2 channels
Channel positions              : Front: L R
Sampling rate                  : 48.0 kHz
Frame rate                     : 46.875 FPS (1024 SPF)
Compression mode               : Lossy
Stream size                    : 84.1 MiB (8%)
Title                          : GOPISAHI
Language                       : Hindi

Audio #2
Format                         : AAC
Duration                       : 2 h 2 min
Bit rate                       : 96.0 kb/s
Channel(s)                     : 2 channels
Channel positions              : Front: L R
Sampling rate                  : 48.0 kHz
Frame rate                     : 46.875 FPS (1024 SPF)
Compression mode               : Lossy
Stream size                    : 84.1 MiB (8%)
Title                          : GOPISAHI
Language                       : English

Text
Language                       : English


Category:Movies > Hollywood Dub
Lang:Hindi
Total Size:997.41 MB
Info Hash:f7cccce87dd29cf720881bc031bc1a3e6a90645b
Added By:gopisahi
Date Added:12-10-2018 16:42:30
Downloads:246

Ratings:Not Yet Rated (Log in to rate it)


Tracker:
udp://tracker.coppersurfer.tk:6969/announce


File List: 


Comments

No comments still posted

Top
Copyright 2018 DownloadHD -|- Page Generated In 0.507102 secs.
-|- RSS Feed -|- Feed Info