Anne Happy‚ô™ | Infrared 2016-2018 (Discography) | 13.04.1803:18 Uhr VA - Deep Aka Techno 19 Techno320 kbit/s 0 / 0727 Hits VID P2P DDL 0 Kommentare


Login
Username:
Password:
[Signup]
[Recover Account]


Browse Torrents

Poll


You must be logged in to view polls



Latest Torrents
The.Opposition.wit...
- [Size: 277.48 MB]

Jurassic World Fal...
- [Size: 1.37 GB]

The.Daily.Show.201...
- [Size: 273.06 MB]

The.Expanse.S03E11...
- [Size: 856.86 MB]

The.Expanse.S03E11...
- [Size: 270.78 MB]


Torrent Details For "Ghar Ek Mandir (1984) Hindi Untouched 720p WEB-DL x264 AAC - DownloadHD"

Ghar Ek Mandir (1984) Hindi Untouched 720p WEB-DL x264 AAC - DownloadHD

Download this torrent | Magnet Download
Health:
Seeds: 0
Leechers: 5
Completed: 88 
Last Checked: 04-02-2018 18:32:26
External Torrent
Update Stats


Watch-Free-HD     Download

Poster


iMDB
Title: Ghar Ek Mandir
Year: 1984
Runtime: 156 minutes
Votes: 38
Rating: 5.3/10
Language: Hindi
Country: India
All Genres: Drama
Plot Outline: A joint family consisting of three brothers Prem (Shashi Kapoor), Vijay (Raj Kiran) and Ravi (Mithun Chakraborty) are leading a happy and prosperous life. They consider their house temple ...
Director: K. Bapaiah

Produced By: A. Krishnamurthy,
Music: Laxmikant Shantaram Kudalkar Pyarelal Ramprasad Sharma
Plot:

A joint family consisting of three brothers Prem (Shashi Kapoor), Vijay (Raj Kiran) and Ravi (Mithun Chakraborty) are leading a happy and prosperous life. They consider their house temple of Love. However, destiny has its own plans for them when Prem gets killed. Seth Dharampal (Kader Khan) also wants to cheat them. Would Ravi alone be able to save his home? Would Seth Dharampal succeed in his evil intentions?

- Written by old is gold
Cast:
Shashi Kapoor as Prem
Moushumi Chatterjee as Laxmi
Mithun Chakraborty as
Ranjeeta Kaur as
Raj Kiran as Dr. Vicky
Prem Chopra as
Aruna Irani as
Suresh Oberoi as
Kader Khan as Mr. Dharmendras
Shoma Anand as


Watch-Free-HD     Download

Details
Name:Ghar Ek Mandir (1984) Hindi Untouched 720p WEB-DL x264 AAC - DownloadHD
Description:

Ghar Ek Mandir (1984) Hindi Untouched 720p WEB-DL x264 AAC - DownloadHD


Format                                   : MPEG-4
Format profile                           : Base Media
Codec ID                                 : isom (isom/iso2/avc1/mp41)
File size                                : 1.77 GiB
Duration                                 : 2 h 35 min
Overall bit rate                         : 1 628 kb/s


Video
ID                                       : 1
Format                                   : AVC
Format/Info                              : Advanced Video Codec
Format profile                           : [email protected]
Format settings, CABAC                   : Yes
Format settings, ReFrames                : 3 frames
Format settings, GOP                     : M=1, N=50
Codec ID                                 : avc1
Codec ID/Info                            : Advanced Video Coding
Duration                                 : 2 h 35 min
Bit rate                                 : 1 495 kb/s
Width                                    : 1 280 pixels
Height                                   : 720 pixels
Display aspect ratio                     : 16:9
Frame rate mode                          : Variable
Frame rate                               : 25.000 FPS
Minimum frame rate                       : 0.455 FPS
Maximum frame rate                       : 25.000 FPS
Color space                              : YUV
Chroma subsampling                       : 4:2:0
Bit depth                                : 8 bits
Scan type                                : Progressive
Bits/(Pixel*Frame)                       : 0.065
Stream size                              : 1.63 GiB (92%)
Writing library                          : Zencoder Video Encoding System
Color range                              : Limited
Color primaries                          : BT.709
Transfer characteristics                 : BT.709
Matrix coefficients                      : BT.709

Audio
ID                                       : 2
Format                                   : AAC
Format/Info                              : Advanced Audio Codec
Format profile                           : LC
Codec ID                                 : 40
Duration                                 : 2 h 35 min
Bit rate mode                            : Constant
Bit rate                                 : 128 kb/s
Channel(s)                               : 2 channels
Channel positions                        : Front: L R
Sampling rate                            : 44.1 kHz
Frame rate                               : 43.066 FPS (1024 spf)
Compression mode                         : Lossy
Stream size                              : 142 MiB (8%)
Default                                  : Yes
Alternate group                          : 1


               
Category:Movies > Bollywood
Lang:Hindi
Total Size:1.77 GB
Info Hash:4b39a848103006a4203dcab0a71c023accde2dc4
Added By:Unknown
Date Added:17-04-2017 14:32:36
Downloads:233

Download Torrent

Ratings:Not Yet Rated (Log in to rate it)


Tracker:
udp://tracker.coppersurfer.tk:6969/announce


File List: 


Comments

<< Previous      Next >>
1 - 3

[Report] Posted: 25-07-2017 at 08:21:10
pcmechanicfj



Uploaded: 0.00 B
Downloaded: 0.00 B
Ratio: ---

Seeds pls

[Report] Posted: 25-12-2017 at 09:58:06
deepudas



Uploaded: 0.00 B
Downloaded: 0.00 B
Ratio: ---

Hi All,

Request kindly seed Ghar Ek Mandir (1984) Hindi Untouched 720p WEB-DL x264 AAC - DownloadHD. Excellent print quality.

Regards,
deepu

[Report] Posted: 25-12-2017 at 09:59:12
deepudas



Uploaded: 0.00 B
Downloaded: 0.00 B
Ratio: ---

Kindly seed this movie want to download and seeds as well.

1 - 3
<< Previous      Next >>


Powered by 10 Hamsters v2-svn -|- Page Generated In 1.234805 secs.
-|- RSS Feed -|- Feed Info
Theme By: Nikkbu