The Taoism Grandmaster | IObit Uninstaller Pro 7 4 0 8 Portable | Play Movie


Login
Username:
Password:
[Signup]
[Recover Account]


Browse Torrents

Poll


You must be logged in to view polls



Latest Torrents
Postcards.from.Lon...
- [Size: 873.35 MB]

Alpha (2018) Engli...
- [Size: 381.22 MB]

Gold 2018 Hindi 72...
- [Size: 1.31 GB]

For.Your.Considera...
- [Size: 723.60 MB]

Deadpool.2.2018.72...
- [Size: 838.70 MB]


Torrent Details For "Bade Dil Wala (1983) Hindi Untouched 720p WEB-DL x264 AAC - DownloadHD"

Bade Dil Wala (1983) Hindi Untouched 720p WEB-DL x264 AAC - DownloadHD

Download this torrent | Magnet Download
Health:
Seeds: 0
Leechers: 9
Completed: 164 
Last Checked: 04-02-2018 18:33:35
External Torrent
Update Stats



Poster


iMDB
Imdb Picture Title: Bade Dil Wala
Year: 1983
Votes: 75
Rating: 5.9/10
Language: Hindi
Country: India
All Genres: Drama, Action, Crime, Family, Romance
Plot Outline: Amrit's generosity and kindness initially lands him in the bad books of a dancer; then in prison; and then as false son-in-law of a very wealthy man.
Director: Bhappi Sonie
Writing By: Gulshan Nanda,C.J. Pavri,Rahi Masoom Reza,
Produced By: Bhappi Sonie,
Music: Rahul Dev Burman
Plot:

Widower businessman Mr. Sinha lives a very wealthy lifestyle along with two daughters, Juhi and Reshmi. Both are of marriageable age and he wants them to get married to equally wealthy families. Juhi ends up falling in love with a middle-classed young man named Vijay Kumar Gupta much to the chagrin of Sinha, who refuses to bless the couple, compelling them to elope. Years later Vijay and Juhi become parents to a young boy, Munna, Sinha forgives them and asks them to return home. The train they were traveling in meets with an accident and amongst the survivors are Vijay and his son. A grieving Sinha welcomes Munna and Vijay, treats Vijay as his son, lets him run the business as well as decides to make him the heir to his wealth and estate. When Reshmi returns home, she is apprehensive of Vijay, at first, then falls in love with him. Watch what happens when a man named Dr. Joshi brings an amnesiac Juhi home, and the impact this will have on everyone, especially when they find out that Dr. Joshi knows a dark secret about Vijay - as he is an ex-convict, jailed for Theft, and who is now on the run from the Police for murder.

- Written by rAjOo ([email protected])

Popular musician Amrit Kumar Saxena usually performs on stage to entertain his fans. On one occasion he red-handily caught Bhagwat Singh alias B.K. stealing priceless jewelery but instead of reporting this to the police Amrit keep this to himself. B.K. then schemes with his girlfriend, Luska to frame Amrit for the stolen jewelery resulting in him getting sentence to jail for two years. But Amrit gets release within a year due to good conduct; it is here he thinks about closing in on B.K. and Luska resulting in a physical exercise which ends up leaving Luska dead. For fear of another arrest Amrit flee the scene only to end up boarding a train; here he gets to meet his childhood friend Vijay, his wife, Juhi and their son, Munna. Unfortunately the train meets in an accident resulting in the death of Juhi and Vijay. Amrit then reaches Munna to Juhi's residence to be introduced to her father, Mr. Sinha who recognizes him as his son-in-law, Vijay and refuses to part with him; while Amrit is apprehensive to stay he is convinced by the family's doctor that Mr. Sinha is a heart patient. It is then Amrit decides to stay on and help Mr. Sinha pull together his business; it is here Amrit starts to develop feelings for this family and Mr. Sinha decides to make him his heir to all his assets. Time passes and Amrit starts to fall in love with Juhi's sister, Reshmi only to be told that Juhi is still alive albeit with a blank memory. Juhi returns home with Dr. Joshi who is none other than Bhagwat Singh who wants to utilize this opportunity to not only expose Amrit's true reality to the Sinhas but to settle scores with Amrit for the death of his girlfriend.

- Written by gavin ([email protected])

Amrit's generosity and kindness initially lands him in the bad books of a dancer; then in prison; and then as false son-in-law of a very wealthy man.

- Written by Rajoo
Cast:
Rishi Kapoor as Amrit Kumar Saxena / Vijay Kumar Gupta
Tina Ambani as Rashmi Sinha
Sarika as Juhi Sinha / Juhi V. Gupta
Aruna Irani as Shabnam
Jagdeep as Jaganath 'Jaggu' Prasad Srivastava
Madan Puri as Makhanlal
Pran as Mr. Sinha
Roopesh Kumar as Prem
Bharat Bhushan as Doctor
Jyoti Bakshi as Tara J. Srivastava



Details
Name:Bade Dil Wala (1983) Hindi Untouched 720p WEB-DL x264 AAC - DownloadHD
Description:

Bade Dil Wala (1983) Hindi Untouched 720p WEB-DL x264 AAC - DownloadHD



Format                      : MPEG-4
Format profile              : Base Media
Codec ID                    : isom (isom/iso2/avc1/mp41)
File size                   : 1.58 GiB
Duration                    : 2 h 18 min
Overall bit rate            : 1 632 kb/s

Video
ID                          : 1
Format                      : AVC
Format/Info                 : Advanced Video Codec
Format profile              : [email protected]
Format settings, CABAC      : Yes
Format settings, ReFrames   : 3 frames
Format settings, GOP        : M=1, N=50
Codec ID                    : avc1
Codec ID/Info               : Advanced Video Coding
Duration                    : 2 h 18 min
Bit rate                    : 1 498 kb/s
Width                       : 1 280 pixels
Height                      : 720 pixels
Display aspect ratio        : 16:9
Frame rate mode             : Constant
Frame rate                  : 25.000 FPS
Color space                 : YUV
Chroma subsampling          : 4:2:0
Bit depth                   : 8 bits
Scan type                   : Progressive
Bits/(Pixel*Frame)          : 0.065
Stream size                 : 1.45 GiB (92%)
Writing library             : Zencoder Video Encoding System
Color range                 : Limited
Color primaries             : BT.709
Transfer characteristics    : BT.709
Matrix coefficients         : BT.709

Audio
ID                          : 2
Format                      : AAC
Format/Info                 : Advanced Audio Codec
Format profile              : LC
Codec ID                    : 40
Duration                    : 2 h 18 min
Bit rate mode               : Constant
Bit rate                    : 128 kb/s
Channel(s)                  : 2 channels
Channel positions           : Front: L R
Sampling rate               : 44.1 kHz
Frame rate                  : 43.066 FPS (1024 spf)
Compression mode            : Lossy
Stream size                 : 127 MiB (8%)
Default                     : Yes

Alternate group             : 1


             
Category:Movies > Bollywood
Lang:Hindi
Total Size:1.58 GB
Info Hash:64d7c623830e785472e89c30f61ad08fd7945f58
Added By:Unknown
Date Added:17-04-2017 14:33:30
Downloads:307

Ratings:Not Yet Rated (Log in to rate it)


Tracker:
udp://tracker.coppersurfer.tk:6969/announce


File List: 


Comments

<< Previous      Next >>
1 - 1

[Report] Posted: 25-12-2017 at 12:55:03
deepudas



seed request plz.

1 - 1
<< Previous      Next >>


Copyright 2018 DownloadHD -|- Page Generated In 1.162607 secs.
-|- RSS Feed -|- Feed Info