Épouvante | Chris Hemsworth | Alles Betty


Login
Username:
Password:
[Signup]
[Recover Account]


Browse Torrents

Poll


You must be logged in to view polls



Latest Torrents
This Old Machine 2...
- [Size: 747.73 MB]

Viking Destiny 201...
- [Size: 2.30 GB]

Lockdown S01 Ep1 a...
- [Size: 777.01 MB]

Mysteries.at.the.M...
- [Size: 1.30 GB]

Woman.Walks.Ahead....
- [Size: 595.67 MB]


Torrent Details For "Khushi (2003) 720p Untouched Web-HD AVC AAC - DownloadHD"

Khushi (2003) 720p Untouched Web-HD AVC AAC - DownloadHD

Download this torrent | Magnet Download
Health:
Seeds: 0
Leechers: 18
Completed:
Last Checked: 16-04-2018 13:07:13
External Torrent
Update Stats



Poster


iMDB
Imdb Picture Title: Khushi
Year: 2003
Runtime: 161 minutes
Votes: 1259
Rating: 4.5/10
Language: Hindi
Country: India
All Genres: Action, Drama, Romance
Plot Outline: Karan and Khushi fall in love, but her conservative family balks at accepting Karan's modern ideas.
Director: Surya S.J.
Sunil Kumar Agrawal
Writing By: Aman Jaffery,Bolu Khan,Surya S.J.,
Produced By: Boney Kapoor,Kanwalinder Singh,
Music: Anu Malik
Plot:

Karan, born in Calcutta, and Khushi, born in the small village of Chamoli, are destined to meet despite the distance between the two. Karan wants to go Canada to further her studies--but due to an accident that takes place, he is forced to continue his studies in Mumbai University. Khushi's father believes that for a girl the education that she has receives is enough and now she should stay with him and marry a boy who is ready to be his son-in-law. But Khushi insists on pursuing her education in Mumbai University. At the University Karan's friend Vicky and Khushi's friend Priya are in love, but are having relationship problems. Karan and Khushi decide to help Vicky and Priya come together, but end up making a romantic connection with each other.

- Written by [email protected][email protected]

Khushi Singh (Kareena Kapoor) is the only child of Vir Bhadra Singh (Amrish Puri) from Punjab, India, and he has loved and pampered her all her life, until when he asks her to get married. She reluctantly agrees, but then the groom had other plans, so Khushi decides to relocate to Bombay, India to continue with her studies. She meets with Karan Roy (Fardeen Khan) from West Bengal, India, and both fall in love. To complicate things, Zohravar Singh (Sharat Saxena) has sworn to avenge himself against Karan, for marrying his daughter, Priya, to a poor college student, Vicky. Khushi is puzzled about Karan's relationship with a woman named Madhu, and has seen him under very intimate circumstances with college student, Roma. The two are unable to reconcile their difference, and then it is now time for Karan to return home to re-locate to Canada, and Khushi must return to her home, and marry the man her dad has chosen for her.

- Written by rAjOo ([email protected])

Karan and Khushi fall in love, but her conservative family balks at accepting Karan's modern ideas.

- Written by Nichol
Cast:
Fardeen Khan as Karan Roy
Kareena Kapoor as Khushi Singh
Amrish Puri as Vir Bhadra Singh
Amitabh Bachchan as Narrator
Beena Banerjee as Madhu Roy
Radhika Chaudhari as Roma
Johnny Lever as Milestone
Matt Moore as Young Punk
Nilofar as
Navin Nischol as Mr. Roy



Details
Name:Khushi (2003) 720p Untouched Web-HD AVC AAC - DownloadHD
Description:
Khushi (2003) 720p Untouched Web-HD AVC AAC - DownloadHD


Format                      : Matroska
File size                   : 2.33 GiB
Duration                    : 2 h 35 min
Overall bit rate            : 2 142 kb/s

Video
ID                          : 1
Format                      : AVC
Format/Info                 : Advanced Video Codec
Format profile              : [email protected]
Format settings, CABAC      : Yes
Format settings, ReFrames   : 4 frames
Codec ID                    : V_MPEG4/ISO/AVC
Duration                    : 2 h 35 min
Bit rate                    : 2 009 kb/s
Nominal bit rate            : 2 500 kb/s
Width                       : 1 280 pixels
Height                      : 720 pixels
Display aspect ratio        : 16:9
Frame rate mode             : Constant
Frame rate                  : 25.000 FPS
Stream size                 : 2.18 GiB (94%)

Audio
ID                          : 2
Format                      : AAC
Format/Info                 : Advanced Audio Codec
Format profile              : LC
Codec ID                    : A_AAC
Duration                    : 2 h 35 min
Bit rate                    : 132 kb/s
Channel(s)                  : 2 channels
Channel positions           : Front: L R
Sampling rate               : 44.1 kHz
Frame rate                  : 43.066 FPS (1024 spf)
Stream size                 : 145 MiB (6%)


                         
Category:Movies > Bollywood
Lang:Hindi
Total Size:2.33 GB
Info Hash:99660da5a468c1b7b4a35b6e4aab1338a0575828
Added By:Unknown
Date Added:19-04-2017 15:52:34
Downloads:225

Ratings:Not Yet Rated (Log in to rate it)


Tracker:
udp://tracker.coppersurfer.tk:6969/announce


File List: 


Comments

<< Previous      Next >>
1 - 2

[Report] Posted: 18-05-2017 at 09:37:29
humail



good

[Report] Posted: 16-04-2018 at 12:51:00
wiki



:love  :love nyc share thanks

1 - 2
<< Previous      Next >>


Copyright 2018 DownloadHD -|- Page Generated In 2.303794 secs.
-|- RSS Feed -|- Feed Info