Login
Username:
Password:
[Signup]
[Recover Account]


Browse Torrents

Poll


You must be logged in to view polls



Latest Torrents
Slender.Man.2018.B...
- [Size: 1.33 GB]

Slender.Man.2018.B...
- [Size: 1.32 GB]

Slender.Man.2018.B...
- [Size: 326.06 MB]

Billa 2007 Hindi U...
- [Size: 2.58 GB]

Magnum.P.I.2018.S0...
- [Size: 325.01 MB]


Torrent Details For "Pyaar To Hona Hi Tha 1998 720p WEB HD - AVC - AAC - Ranvijay"

Pyaar To Hona Hi Tha 1998 720p WEB HD - AVC - AAC - Ranvijay

Download this torrent | Magnet Download
Health:
Seeds: 0
Leechers: 1
Completed:
Last Checked: 10-09-2017 05:15:14
External Torrent
Update Stats



Poster


iMDB
Imdb Picture Title: Pyaar To Hona Hi Tha
Year: 1998
Runtime: 156 minutes
Votes: 2168
Rating: 6.7/10
Language: Hindi
Country: India
All Genres: Comedy, Drama, Romance
Plot Outline: Sanjana was Rahul's fiancé. When Rahul was gone to India for official trip He is attracted to Nisha, and announces that he will be marrying her soon. Sanjana does not take kindly to this, ...
Tagline: Believe In Love.
Director: Anees Bazmee
Writing By: Anees Bazmee,Anees Bazmee,Anees Bazmee,
Produced By: Ajay Acharya,Gordhan Tanwani,
Music: Jatin Pandit Lalit Pandit Surendra Singh Sodhi
Plot:

Sanjana was Rahul's fiancé. When Rahul was gone to India for official trip He is attracted to Nisha, and announces that he will be marrying her soon. Sanjana does not take kindly to this, and in her heart hopes to make Rahul change his mind. She hires Shekhar to be her lover/boyfriend, and go out with her, so as to make Rahul jealous. Shekhar finds himself falling in love with Sanjana. Sanjana finds herself getting attracted to Shekhar, only to find out that the police, especially Inspector Khan, would like to arrest Shekhar for criminal activities.

- Written by rAjOo ([email protected])
Cast:
Ajay Devgn as Shekhar
Kajol as Sanjana
Bijay Anand as Rahul Bajaj
Kashmira Shah as Nisha
Tiku Talsania as Kumar Mangat
Reema Lagoo as Babhi - Shekhar's Sister-in-law
Harish Patel as Rahul & Sanjana's Boss
Anjan Srivastav as Shekhar's Father
Om Puri as Inspector Khan
Remo Fernandes as Himself - title song



Details
Name:Pyaar To Hona Hi Tha 1998 720p WEB HD - AVC - AAC - Ranvijay
Description:
Format                                   : Matroska
Format version                           : Version 4 / Version 2
File size                                : 2.16 GiB
Duration                                 : 2 h 38 min
Overall bit rate                         : 1 953 kb/s                      

Video
ID                                       : 1
Format                                   : AVC
Format/Info                              : Advanced Video Codec
Format profile                           : [email protected]
Format settings, CABAC                   : Yes
Format settings, ReFrames                : 1 frame
Format settings, GOP                     : M=1, N=25
Codec ID                                 : V_MPEG4/ISO/AVC
Duration                                 : 2 h 38 min
Bit rate mode                            : Constant
Bit rate                                 : 1 890 kb/s
Nominal bit rate                         : 2 000 kb/s
Width                                    : 1 280 pixels
Height                                   : 720 pixels
Display aspect ratio                     : 16:9
Frame rate mode                          : Constant
Frame rate                               : 25.000 FPS
Color space                              : YUV
Chroma subsampling                       : 4:2:0
Bit depth                                : 8 bits
Scan type                                : Progressive
Bits/(Pixel*Frame)                       : 0.082
Stream size                              : 2.09 GiB (97%)
Title                                    : Ranvijay1234
Default                                  : Yes
Forced                                   : No

Audio
ID                                       : 2
Format                                   : AAC
Format/Info                              : Advanced Audio Codec
Format profile                           : LC
Codec ID                                 : A_AAC
Duration                                 : 2 h 38 min
Bit rate                                 : 61.4 kb/s
Channel(s)                               : 2 channels
Channel positions                        : Front: L R
Sampling rate                            : 48.0 kHz
Frame rate                               : 46.875 FPS (1024 spf)
Compression mode                         : Lossy
Stream size                              : 69.5 MiB (3%)
Title                                    : Ranvijay1234
Default                                  : Yes
Forced                                   : No

Text
ID                                       : 3
Format                                   : UTF-8
Codec ID                                 : S_TEXT/UTF8
Codec ID/Info                            : UTF-8 Plain Text
Duration                                 : 8 min 29 s
Bit rate                                 : 24 b/s
Count of elements                        : 2
Stream size                              : 1.50 KiB (0%)
Title                                    : Ranvijay1234
Default                                  : Yes
Forced                                   : No








Category:Movies > Bollywood
Lang:Hindi
Total Size:2.16 GB
Info Hash:e2e60f7eceab6e423268e1f3a5143896bbbc50ea
Added By:ranvijay1234
Date Added:27-04-2017 18:00:44
Downloads:441

Ratings:Not Yet Rated (Log in to rate it)


Tracker:
udp://tracker.coppersurfer.tk:6969/announce


File List: 


Comments

<< Previous      Next >>
1 - 1

[Report] Posted: 27-05-2017 at 15:12:13
mopimp9



Please seed

1 - 1
<< Previous      Next >>


Top
Copyright 2018 DownloadHD -|- Page Generated In 1.229635 secs.
-|- RSS Feed -|- Feed Info